Home » , » El gran calavera ( 1949 ) [Buñuel]
CINE
CLASICO

HDCC

El gran calavera ( 1949 ) [Buñuel]


Ver en linea / Watch On LineDownload / Descargar

El calavera - Luis Buñuel
El gran calavera | 1949

Ficha de la película
DURACIÓN DE LA PELÍCULA: 92 Min.
PAÍS: México
DIRIGIDA POR: Luis Buñuel
GUIÓNISTA: Janet Alcoriza, Luis Alcoriza (Obra: Adolfo Torrado)
MÚSICA: Manuel Esperón
FOTOGRAFÍA: Ezequiel Carrasco (B&W)
INTERPRETES: Fernando Soler, Rosario Granados, Andrés Soler, Rubén Rojo, Gustavo Rojo, Maruja Grifell, Francisco Jambrina, Luis Alcoriza, Antonio Bravo, Antonio Monsell, María Luisa Serrano
PRODUCIDA POR: Ultramar Films
GÉNERO & TEMÁTICA: Comedia | Comedia negra
UPLOADER: Odinko

Sinopsis
Ramiro es un viudo rico y aficionado a la bebida que se deja explotar por sus hijos Virginia y Eduardo, por su hermano Ladislao, que es un vago, y por su cuñada Milagros. Su hermano Gregorio, desesperado ante esta situación, decide hacerle creer que está arruinado y que su familia debe trabajar si quiere sobrevivir... (FILMAFFINITY)

Imagenes / Capturas
Luis Buñuel - El gran calavera | 1949
IDIOMA: Castellano

MEDIAINFO DEL ARCHIVO


El Gran Calavera (Luis Buñuel, 1949)(Castellano).Dvdrip.Xvid.Ac3.By.Odinko.(CineClasicoConecta2).avi
Format : AVI
Format/Info : Audio Video Interleave
File size : 1.34 GiB
Duration : 1h 31mn
Overall bit rate : 2 092 Kbps
Writing application : VirtualDubMod 1.5.4.1 (build 2178/release)
Writing library : VirtualDubMod build 2178/release

Video
ID : 0
Format : MPEG-4 Visual
Format profile : Advanced Simple@L5
Format settings, BVOP : 1
Format settings, QPel : No
Format settings, GMC : No warppoints
Format settings, Matrix : Custom
Codec ID : XVID
Codec ID/Hint : XviD
Duration : 1h 31mn
Bit rate : 1 893 Kbps
Width : 720 pixels
Height : 544 pixels
Display aspect ratio : 4:3
Frame rate : 23.976 fps
Color space : YUV
Chroma subsampling : 4:2:0
Bit depth : 8 bits
Scan type : Progressive
Compression mode : Lossy
Bits/(Pixel*Frame) : 0.202
Stream size : 1.21 GiB (91%)
Writing library : XviD 1.2.1 (UTC 2008-12-04)

Audio
ID : 1
Format : AC-3
Format/Info : Audio Coding 3
Mode extension : CM (complete main)
Format settings, Endianness : Big
Codec ID : 2000
Duration : 1h 31mn
Bit rate mode : Constant
Bit rate : 192 Kbps
Channel(s) : 2 channels
Channel positions : Front: L R
Sampling rate : 48.0 KHz
Bit depth : 16 bits
Compression mode : Lossy
Stream size : 126 MiB (9%)
Alignment : Split accross interleaves
Interleave, duration : 96 ms (2.30 video frames)
Interleave, preload duration : 96 ms
Language : Espanol

Sigue el enlace para descargar

Descargar El gran calavera 1949


Ver en linea / Watch On LineDownload / Descargar

Películas clásicas más descargadas

Películas clásicas para descargar gratis

No busques más, en cineclasico.org, te proporcionamos toda la información relevante sobre tu cine clásico favorito y los enlaces a sitios web para poder ver online la película que te apetezca e incluso descargarla para verla después en tu televisor.

Si has llegado buscando cine clasico online, estamos encantados de invitarte a visitar DESCARGACINECLASICO y si prefieres puedes seguir viendo información de películas que más tarde puedes encontrar en descarga cine clásico y si no la tuvieran, solo tienes que pedirla en un comentario.

zoowoman.website - cineclasicodcc.com - descargacineclasico.com - www.misclasicosdecine.com - tucineclasico.es - online.tucineclasico.es - divxclasico.com - divxonline.tv - divxtotal.la -

SIGUE NUESTRO CINE EN:

REGÍSTRATE EN UPLOADED


Consigue una cuenta desde aquí para aumentar la velocidad de tus descargas y sin necesidad de estar escribiendo esas incomodas captchas.

uploaded.to

Podrás Ver todas nuestas películas, sin limitaciones

.

AD

 
Copyright © 2014 Descarga Cine Clásico 🥇 CineClasico.Org
Política de privacidad y cookies | DCMA
Recuerda que está página es únicamente informativa y no contiene enlaces de descarga.
Para descargar estos clásicos visita: DESCARGA CINE CLASICO | Tus películas clásicas online